<svg xmlns="http://www.w3.org/2000/svg">
<defs>
<font
   vert-adv-y="1024"
   vert-origin-y="768"
   vert-origin-x="512"
   horiz-origin-y="0"
   horiz-origin-x="0"
   id="font22"
   horiz-adv-x="1000">
<!-- Macromedia Fontographer 4.1.3 EngraverTextT -->
<font-face
   id="font-face2"
   underline-thickness="20.000000"
   underline-position="-133.000000"
   units-per-em="1000"
   font-family="'EngraverTextT'">
<font-face-src><font-face-name
     name="EngraverTextT" /></font-face-src></font-face>
<missing-glyph
   id="missing-glyph4"
   d="M63,0L63,800L438,800L438,0M125,63L375,63L375,738L125,738z"
   horiz-adv-x="500" />
<glyph
   id="glyph6"
   horiz-adv-x="227.000"
   unicode=" " />
<glyph
   id="glyph8"
   d="M462,330C462,245 446,171 413,108C372,29 313,-10 236,-10C157,-10 95,32 52,116C23,171 9,243 9,330C9,419 25,494 57,555C97,633 157,672 236,672C299,672 352,643 394,584C439,521 462,437 462,330M366,329C366,540 323,646 236,646C149,646 106,540 106,329C106,122 151,18 240,18C271,18 295,29 313,50C326,66 337,91 346,125C353,152 359,188 362,232C365,267 366,300 366,329z"
   horiz-adv-x="558.000"
   unicode="0" />
<glyph
   id="glyph10"
   d="M393,0L117,0L117,15C154,17 179,22 193,30C206,38 213,52 213,73L213,546C213,574 203,588 182,588C172,588 160,585 146,580C135,575 123,571 111,566L111,579C167,609 228,640 294,672L299,668L299,67C299,43 310,28 331,21C339,18 360,16 393,15z"
   horiz-adv-x="457.000"
   unicode="1" />
<glyph
   id="glyph12"
   d="M438,680L403,598C402,595 399,591 395,586C391,584 385,583 376,583L180,583L139,498C207,488 256,476 285,461C326,440 358,414 382,385C414,344 430,291 430,226C430,199 424,172 411,145C364,41 279,-11 157,-11C74,-11 32,10 32,51C32,76 45,89 72,89C91,89 117,79 148,58C179,37 204,26 224,26C251,26 277,38 302,62C341,99 360,149 357,212C355,267 330,312 282,347C243,376 194,395 134,406C123,408 103,410 75,411C68,411 64,413 64,418C64,419 65,422 68,429C72,439 80,457 92,482C98,495 125,554 173,661L383,661C398,661 413,670 430,687z"
   horiz-adv-x="523.000"
   unicode="5" />
<glyph
   id="glyph14"
   d="M535,319L30,319L30,388L535,388M535,117L30,117L30,186L535,186z"
   horiz-adv-x="552.000"
   unicode="=" />
<glyph
   id="glyph16"
   d="M581,129C581,62 545,6 473,-41C409,-82 342,-103 271,-103C218,-103 175,-93 141,-72C100,-47 80,-11 80,38C80,104 116,160 188,207C252,248 319,269 390,269C457,269 508,253 543,221L543,1196L581,1196z"
   horiz-adv-x="661.000"
   unicode="q" />
<glyph
   id="glyph18"
   d="M304,-162L292,-178C263,-166 230,-140 192,-100C161,-66 135,-33 114,0C69,73 46,152 46,238C46,355 77,455 138,536C181,593 234,640 295,676L304,660C287,646 266,627 243,604C170,532 133,419 133,265C133,170 143,92 163,30C190,-55 237,-119 304,-162z"
   horiz-adv-x="405.000"
   unicode="{" />
<glyph
   id="glyph20"
   d="M285,260C285,142 255,43 194,-38C149,-98 96,-145 35,-178L26,-162C51,-143 73,-124 90,-106C137,-57 169,6 185,85C194,127 198,176 198,233C198,327 188,405 168,468C142,549 95,613 27,660L39,676C104,643 163,583 216,498C262,425 285,345 285,260z"
   horiz-adv-x="373.000"
   unicode="}" />
</font>
<font
   vert-adv-y="1024"
   vert-origin-y="768"
   vert-origin-x="512"
   horiz-origin-y="0"
   horiz-origin-x="0"
   id="font64"
   horiz-adv-x="1000">
<!-- 1.000;pyrs;Maestro -->
<font-face
   id="font-face24"
   underline-thickness="9.000000"
   underline-position="-78.000000"
   units-per-em="1000"
   font-family="'Maestro'">
<font-face-src><font-face-name
     name="Maestro" /></font-face-src></font-face>
<missing-glyph
   id="missing-glyph26"
   horiz-adv-x="0" />
<glyph
   id="glyph28"
   d="M72,62L72,-87L170,-55L170,94M43,156L43,319L72,319L72,166L170,198L170,344L199,344L199,207L238,220L238,116L199,103L199,-45L238,-33L238,-136L199,-149L199,-312L170,-312L170,-158L72,-190L72,-338L43,-338L43,-200L0,-214L0,-110L43,-96L43,53L0,39L0,142z"
   horiz-adv-x="236.000"
   unicode="#" />
<glyph
   id="glyph30"
   d="M466,-252C447,-255 428,-257 407,-258C386,-259 365,-258 345,-256C325,-255 307,-252 290,-249C273,-246 259,-242 248,-237C197,-212 155,-186 124,-158C92,-131 67,-102 50,-72C33,-42 21,-11 14,21C7,52 2,84 0,116C-3,151 1,185 10,220C19,255 31,288 47,320C62,351 80,380 101,407C121,434 141,457 162,477C186,500 211,522 238,545C264,567 293,590 324,613C323,622 323,629 322,636C321,643 319,650 318,657C317,664 315,671 314,680C312,689 311,699 310,712C310,717 309,727 308,742C307,756 306,773 306,794C305,814 306,837 307,863C308,889 312,916 317,944C320,961 328,982 339,1008C350,1033 363,1058 378,1082C393,1106 408,1127 425,1144C442,1161 457,1170 472,1170C479,1170 487,1166 496,1157C505,1148 513,1136 522,1121C530,1106 538,1089 546,1070C554,1051 561,1031 567,1011C573,991 578,971 582,952C585,933 587,916 588,901C589,866 587,836 584,810C581,783 576,760 569,739C562,718 555,698 546,681C537,663 527,645 517,627C506,609 496,593 485,580C474,566 462,552 451,538C439,523 427,511 414,502C401,492 388,481 375,470C381,436 386,405 391,378C393,366 395,354 397,343C399,332 401,321 402,312C403,302 405,294 406,288C407,281 408,277 408,276C424,278 441,278 458,277C475,275 491,272 507,269C522,266 536,261 549,256C561,251 571,246 578,241C614,214 640,184 655,150C670,115 678,80 681,44C683,16 681,-12 674,-40C667,-69 656,-96 641,-121C625,-147 605,-171 580,-192C555,-213 525,-231 491,-245C495,-272 499,-298 502,-321C505,-341 508,-360 511,-379C514,-398 516,-412 517,-419C523,-459 525,-492 524,-517C523,-543 518,-564 509,-580C502,-593 493,-606 484,-619C474,-632 462,-643 449,-653C436,-663 420,-671 403,-678C385,-685 365,-689 342,-690C325,-691 304,-690 280,-685C256,-681 233,-673 211,-662C189,-651 170,-637 154,-618C138,-599 129,-576 127,-549C126,-533 127,-517 130,-500C133,-484 139,-469 148,-456C156,-443 167,-433 181,-424C194,-415 211,-410 231,-409C243,-408 255,-410 268,-414C280,-419 291,-425 302,-433C313,-441 321,-451 328,-463C335,-475 339,-488 340,-502C342,-527 334,-550 317,-573C300,-596 270,-614 229,-625C236,-634 248,-643 267,-651C286,-660 309,-664 337,-664C366,-664 395,-655 422,-638C449,-621 469,-599 484,-573C493,-556 498,-533 498,-505C498,-478 496,-450 493,-422C492,-417 490,-406 487,-387C484,-369 481,-350 478,-330C475,-307 471,-281 466,-252M487,1015C461,1015 438,1003 419,979C399,954 383,923 371,886C358,849 350,808 346,763C342,718 343,675 349,634C371,651 394,671 418,695C442,718 464,743 484,770C503,797 519,824 532,851C544,878 549,904 547,929C546,937 545,946 543,956C541,966 538,975 533,984C528,993 522,1000 515,1006C508,1012 498,1015 487,1015M485,-211C514,-201 536,-188 552,-172C568,-156 580,-139 588,-120C595,-101 600,-83 601,-64C602,-45 602,-29 601,-14C600,-2 597,13 593,31C588,49 580,66 568,83C556,100 539,114 517,125C495,136 466,140 429,138M403,136C376,135 353,129 336,120C318,110 304,98 294,85C283,71 276,56 273,41C269,26 267,12 268,0C269,-12 271,-24 276,-37C281,-50 287,-61 295,-72C302,-83 311,-93 320,-102C329,-111 338,-118 347,-123C346,-124 345,-125 344,-126C343,-127 341,-129 340,-130C339,-131 338,-133 337,-134C316,-124 298,-112 283,-98C267,-85 257,-75 252,-69C245,-59 238,-50 233,-42C228,-34 223,-25 220,-16C217,-7 214,2 212,13C209,24 208,36 207,51C206,65 207,80 210,96C213,111 219,127 227,143C234,159 244,175 257,190C269,205 283,219 300,232C309,239 317,244 324,248C331,252 337,256 343,259C349,262 355,264 362,266C368,267 375,269 382,271L352,452C344,447 331,438 313,424C295,410 275,393 254,374C233,355 212,334 191,312C170,289 152,268 139,247C115,209 96,174 83,142C70,110 65,75 68,38C71,-4 84,-43 107,-79C130,-116 159,-146 195,-171C231,-196 272,-213 318,-222C364,-232 412,-231 461,-219C450,-153 441,-94 432,-42C428,-20 424,2 421,23C418,44 415,63 412,80C409,97 406,110 405,121C404,131 403,136 403,136z"
   horiz-adv-x="709.000"
   unicode="&amp;" />
<glyph
   id="glyph32"
   d="M31,20C31,34 36,46 46,56C56,65 68,70 83,70C98,70 110,65 120,56C130,46 135,34 135,20C135,6 130,-6 120,-16C110,-26 98,-31 83,-31C68,-31 56,-26 46,-16C36,-6 31,6 31,20z"
   horiz-adv-x="155.000"
   unicode="." />
<glyph
   id="glyph34"
   d="M502,-262C496,-273 490,-284 485,-293C479,-302 473,-311 467,-320C461,-329 455,-337 448,-345C441,-354 434,-363 425,-373C416,-383 408,-392 401,-400C393,-408 385,-416 378,-423C370,-430 362,-437 353,-444C344,-451 335,-459 324,-467C311,-477 298,-486 287,-493C275,-500 263,-507 252,-513C240,-519 228,-524 215,-529C202,-534 188,-540 173,-546C158,-552 141,-557 123,-562C104,-567 87,-572 70,-575C51,-579 31,-583 12,-586L5,-571C36,-560 68,-548 99,-534C125,-522 153,-507 182,-490C211,-473 236,-454 257,-432C311,-375 352,-311 380,-242C408,-173 421,-95 420,-7C420,13 418,36 414,62C409,88 402,113 391,136C380,159 364,179 345,196C325,213 299,221 268,221C250,221 231,217 211,210C190,203 172,193 155,181C138,168 125,154 114,137C103,120 99,101 101,82C102,79 104,79 108,80C111,81 117,82 124,84C131,86 139,88 150,90C160,92 172,93 186,92C201,91 213,87 224,79C235,70 243,60 250,47C257,34 261,21 263,6C265,-9 264,-24 261,-38C256,-60 246,-77 232,-90C217,-103 197,-110 172,-110C156,-110 141,-107 126,-101C111,-96 97,-88 86,-77C75,-67 66,-54 59,-39C52,-24 48,-7 48,12C47,41 51,66 58,88C65,110 73,129 84,145C94,161 105,174 117,185C128,195 139,203 149,209C174,224 199,235 224,241C249,246 273,249 296,250C321,250 347,246 373,238C398,229 422,217 445,202C468,186 488,167 506,146C524,124 538,100 547,73C558,43 564,11 565,-22C565,-56 561,-93 552,-132C549,-145 546,-157 543,-168C540,-179 536,-189 532,-199C528,-209 524,-219 519,-229C514,-239 508,-250 502,-262M603,123C602,138 607,151 618,162C629,172 642,177 657,177C672,178 686,173 697,163C708,153 713,140 713,125C714,110 709,97 698,86C687,75 674,69 659,69C644,68 631,73 620,84C609,95 603,108 603,123M603,-129C603,-114 608,-101 619,-91C630,-81 643,-76 658,-75C673,-75 687,-80 698,-89C709,-99 714,-112 714,-127C715,-142 710,-155 699,-166C688,-177 675,-183 660,-183C645,-184 632,-179 621,-168C610,-157 604,-144 603,-129z"
   horiz-adv-x="723.000"
   unicode="?" />
<glyph
   id="glyph36"
   d="M280,253C277,226 270,198 260,168C250,138 235,106 214,71C193,35 171,1 149,-32C127,-65 106,-96 87,-124C70,-147 55,-174 41,-203C26,-233 19,-262 19,-290L0,-290L0,-24L19,-24C29,-23 40,-20 51,-17C60,-14 71,-10 84,-5C96,-0 108,6 121,15C130,21 140,29 151,40C162,51 173,64 184,80C195,95 207,113 218,134C229,155 238,178 247,203C256,231 262,256 264,277C266,298 267,323 266,350C266,365 265,380 262,397C259,413 255,429 250,445C245,460 240,475 235,490C230,504 224,516 218,527L229,534C238,520 247,503 255,484C262,464 269,442 274,418C279,394 282,368 284,340C285,312 284,283 280,253z"
   horiz-adv-x="330.000"
   unicode="J" />
<glyph
   id="glyph38"
   d="M26,354L26,177L26,113C35,122 44,129 52,134C60,139 68,144 75,147C82,150 90,152 99,153C107,154 116,155 127,155C140,155 151,152 161,147C171,142 180,135 187,126C194,117 200,108 204,97C208,86 210,76 210,66C211,55 210,45 207,35C204,24 201,15 197,6C192,-5 185,-15 175,-24C165,-33 156,-41 148,-49C145,-52 140,-56 131,-63C122,-70 113,-77 102,-85C91,-93 79,-101 67,-109C55,-118 44,-125 34,-132C24,-139 16,-145 10,-150C3,-155 0,-158 0,-158L0,433L26,433M107,91C104,95 99,98 94,101C88,104 82,105 75,105C68,105 62,103 55,99C48,95 42,88 37,78C30,65 27,50 27,31C26,12 26,-6 26,-21L26,-107C26,-107 28,-105 32,-102C36,-99 41,-95 47,-90C52,-85 58,-80 65,-74C71,-68 77,-63 82,-58C91,-49 99,-40 106,-30C113,-20 118,-7 121,8C125,23 126,38 124,53C122,68 116,80 107,91z"
   horiz-adv-x="210.000"
   unicode="b" />
<glyph
   id="glyph40"
   d="M220,247C247,247 272,244 296,238C320,231 341,222 359,210C377,197 391,182 402,163C413,144 418,123 418,99C418,89 415,80 410,71C405,62 398,54 390,47C382,40 374,34 365,30C356,26 348,24 341,24C334,24 326,25 317,28C307,30 298,34 289,39C280,44 272,52 266,62C259,71 256,84 256,99C256,118 262,135 275,148C287,161 302,167 319,167C331,167 337,170 338,176C339,181 337,186 333,191C322,202 307,211 288,218C269,224 247,224 222,217C202,212 186,202 174,188C161,174 152,157 145,138C138,119 133,97 130,74C127,50 126,26 126,1C126,-26 128,-53 131,-79C134,-106 139,-129 148,-150C156,-171 168,-187 183,-199C198,-212 217,-218 241,-218C258,-218 275,-214 292,-207C309,-200 325,-189 339,-176C352,-163 363,-148 372,-130C380,-112 384,-92 383,-71L411,-71C411,-78 410,-86 408,-95C405,-104 403,-114 400,-123C397,-133 393,-142 389,-151C384,-160 380,-167 376,-172C367,-183 357,-193 346,-202C334,-211 322,-219 309,-226C296,-233 282,-239 269,-243C255,-247 242,-249 230,-249C197,-249 166,-242 139,-228C111,-215 87,-196 67,-173C47,-150 32,-124 21,-93C10,-63 4,-32 4,1C4,33 9,64 20,94C30,123 45,149 64,172C83,195 105,213 132,227C159,240 188,247 220,247z"
   horiz-adv-x="422.000"
   unicode="c" />
<glyph
   id="glyph42"
   d="M15,287C15,262 21,237 33,210C45,183 58,160 73,139C90,116 108,91 127,65C146,38 166,9 185,-24C193,-38 201,-53 208,-70C215,-87 222,-104 228,-121C234,-138 239,-155 243,-170C246,-185 249,-198 250,-208C253,-229 256,-249 258,-269C259,-290 260,-310 259,-329C258,-390 247,-447 228,-499L216,-497C225,-474 232,-446 237,-415C241,-384 243,-354 243,-326C243,-302 241,-276 237,-247C233,-218 227,-192 218,-167C203,-122 184,-87 163,-61C142,-35 123,-17 108,-7C97,0 86,6 75,11C64,15 54,18 45,20C34,23 24,24 15,25L1,25L1,287L15,287z"
   horiz-adv-x="330.000"
   unicode="j" />
<glyph
   id="glyph44"
   d="M24,62L24,-95L138,-65L138,92M164,196L164,-375L138,-375L138,-161L-1,-197L-1,381L24,381L24,158z"
   horiz-adv-x="198.000"
   unicode="n" />
<glyph
   id="glyph46"
   d="M295,-445C296,-462 295,-477 294,-491C292,-505 289,-518 286,-530C283,-542 279,-553 275,-564C271,-575 267,-585 264,-596L250,-593C259,-571 267,-548 273,-523C279,-499 281,-477 280,-458C279,-435 275,-412 270,-390C264,-369 257,-347 250,-326C239,-295 225,-267 206,-241C187,-215 166,-194 143,-178C130,-169 117,-161 103,-154C89,-147 76,-140 63,-134C48,-127 34,-121 20,-115C17,-116 14,-116 11,-116C8,-116 6,-116 5,-116L0,-116L0,80L0,297L18,297C18,285 19,277 20,273C21,268 23,261 26,251C29,242 33,235 36,230C39,225 46,216 55,205C56,204 58,201 63,196C67,191 71,187 76,182C81,177 85,172 90,168C94,163 97,160 98,159C107,149 116,141 125,134C133,127 141,120 150,113C158,106 167,98 176,91C185,83 196,74 208,63C221,51 233,37 243,22C252,6 260,-10 267,-26C273,-42 278,-57 282,-72C286,-87 289,-101 290,-112C291,-121 292,-128 293,-133C293,-139 293,-145 293,-150C292,-155 291,-161 290,-168C289,-175 287,-185 284,-196C282,-205 280,-213 279,-218C277,-224 275,-229 273,-234C271,-239 269,-245 266,-251C263,-257 260,-264 256,-273C260,-282 263,-290 266,-297C269,-304 271,-310 274,-317C276,-324 278,-331 279,-336C281,-345 283,-354 285,-361C286,-368 288,-376 289,-384C290,-393 292,-402 293,-411C294,-421 294,-432 295,-445M270,-179C271,-171 271,-165 272,-161C273,-157 273,-153 273,-149C273,-146 272,-141 271,-136C270,-131 267,-123 264,-112C257,-87 247,-65 235,-46C222,-28 209,-13 196,0C183,13 169,23 156,32C143,40 131,47 121,52C103,62 85,69 66,73C47,77 31,79 18,80C18,77 18,75 19,73C19,70 19,68 19,66C20,54 22,44 25,37C28,29 31,22 36,15C41,8 46,2 53,-5C60,-12 67,-21 76,-30C97,-53 119,-77 142,-102C165,-127 188,-156 213,-190C218,-198 225,-208 232,-221C239,-234 244,-245 248,-252C255,-240 260,-227 263,-214C266,-201 269,-189 270,-179z"
   horiz-adv-x="296.000"
   unicode="r" />
<glyph
   id="glyph48"
   d="M0,3C-1,20 3,37 13,53C22,68 36,82 54,94C72,106 93,116 118,123C142,130 168,134 196,134C224,134 251,131 277,126C303,121 326,112 347,101C367,90 384,76 397,59C410,42 418,21 420,-2C421,-19 417,-36 408,-51C398,-67 384,-81 367,-93C349,-105 328,-114 304,-121C279,-128 253,-132 225,-132C197,-132 170,-129 144,-124C118,-119 95,-110 74,-99C53,-88 36,-74 23,-57C10,-40 2,-20 0,3M125,22C128,4 131,-13 136,-29C140,-45 146,-59 154,-71C161,-83 171,-92 182,-99C193,-106 206,-109 223,-109C235,-109 246,-106 256,-101C265,-96 273,-89 280,-81C287,-73 292,-64 295,-54C298,-45 298,-35 297,-26C294,-8 291,9 286,25C281,41 275,55 267,67C259,79 249,89 238,96C226,103 212,106 195,106C183,106 172,103 163,98C154,93 146,86 140,78C134,70 130,61 127,51C124,41 124,31 125,22z"
   horiz-adv-x="421.000"
   unicode="w" />
<glyph
   id="glyph50"
   d="M319,251L319,107L1,107L1,251z"
   horiz-adv-x="319.000"
   unicode="∑" />
<glyph
   id="glyph52"
   d="M-1,476C20,485 43,497 68,511C93,525 118,539 144,554C169,569 194,583 217,597C240,611 261,623 278,633L278,512L-1,355M278,454L278,334L-1,177L-1,297M278,276L278,155L-1,-1L-1,119z"
   horiz-adv-x="277.000"
   unicode="æ" />
<glyph
   id="glyph54"
   d="M257,-217C240,-210 224,-204 211,-201C198,-198 186,-197 175,-197C154,-197 136,-203 121,-216C106,-229 98,-247 98,-270C98,-277 101,-286 106,-295C111,-304 116,-313 123,-321C130,-330 139,-340 149,-349L137,-359C115,-346 95,-331 77,-315C62,-302 47,-286 34,-269C20,-252 12,-235 9,-216C7,-205 8,-193 11,-182C14,-171 19,-160 26,-151C33,-142 42,-135 53,-129C64,-124 76,-120 90,-119C95,-119 102,-119 109,-119C116,-120 124,-120 131,-121C138,-122 144,-123 151,-124C157,-125 162,-126 166,-127C118,-80 82,-42 58,-11C33,20 23,40 27,49C32,55 39,64 49,77C58,89 68,103 77,120C86,137 95,154 102,173C109,192 113,210 113,228C113,239 109,254 102,271C95,288 87,304 78,320C67,338 56,357 43,377L57,387L239,158C222,138 208,118 196,97C185,80 175,61 166,41C157,20 153,1 153,-17C153,-30 155,-42 159,-53C162,-65 167,-76 172,-86C177,-97 183,-106 190,-115C197,-124 203,-132 208,-139C211,-143 215,-148 221,-154C227,-161 233,-167 238,-173C243,-180 248,-186 253,-191C257,-196 259,-200 259,-201L257,-217z"
   horiz-adv-x="287.000"
   unicode="Œ" />
<glyph
   id="glyph56"
   d="M8,-1C15,17 25,34 39,49C52,64 68,78 86,90C104,101 123,110 144,117C165,123 186,126 207,126C228,126 247,123 263,116C279,109 292,99 301,88C310,76 316,62 319,47C321,31 319,14 312,-4C305,-22 295,-39 281,-54C267,-70 251,-84 233,-95C215,-107 196,-116 175,-122C154,-129 133,-132 112,-132C91,-132 72,-128 57,-121C41,-114 28,-105 19,-93C9,-81 3,-67 1,-51C-1,-36 1,-19 8,-1z"
   horiz-adv-x="319.000"
   unicode="œ" />
<glyph
   id="glyph58"
   d="M72,213C90,218 105,217 117,210C129,203 138,194 145,182C151,170 155,157 156,143C157,128 156,116 153,106C164,107 173,109 182,112C191,115 200,121 209,130C218,139 225,147 231,154C236,161 243,170 251,179L265,171L154,-248L114,-248C121,-226 128,-204 135,-183C141,-166 147,-147 153,-128C159,-109 164,-94 169,-83C180,-54 189,-27 196,-4C203,19 208,38 212,54C217,73 220,89 223,103C217,98 209,93 199,86C188,79 177,72 165,65C153,58 141,53 128,48C115,43 103,40 91,39C65,38 44,45 29,60C13,75 4,93 1,114C-2,134 3,154 14,174C25,193 45,206 72,213z"
   horiz-adv-x="304.000"
   unicode="‰" />
<glyph
   id="glyph60"
   d="M318,128L318,0L0,0L0,128z"
   horiz-adv-x="318.000"
   unicode="Ó" />
<glyph
   id="glyph62"
   d="M320,89C324,82 327,74 328,65C329,56 329,47 328,38C327,29 325,20 323,12C321,4 319,-2 317,-7C308,-32 294,-55 275,-74C256,-93 239,-107 224,-114C191,-131 152,-137 107,-133C100,-132 93,-131 84,-130C75,-129 66,-126 57,-123C48,-120 39,-115 31,-110C22,-105 16,-98 11,-90C6,-81 3,-72 2,-63C1,-54 1,-46 2,-37C3,-29 4,-21 6,-14C8,-7 10,-1 12,4C21,29 35,50 52,67C69,84 86,97 101,106C116,115 135,122 158,127C180,132 205,133 233,130C238,129 245,129 253,128C261,127 269,125 278,122C286,119 294,115 302,110C309,105 315,98 320,89M297,72C292,80 285,85 278,88C270,91 262,92 253,91C244,90 234,88 225,85C216,82 207,78 199,74C188,69 178,63 169,58C160,53 150,47 140,42C121,31 101,19 81,6C74,1 66,-4 59,-10C51,-16 44,-23 39,-30C34,-37 30,-45 29,-53C27,-62 28,-70 33,-78C38,-86 44,-91 52,-94C60,-97 69,-97 78,-96C87,-95 96,-93 105,-90C114,-87 123,-83 131,-79C142,-74 153,-68 163,-63C172,-58 182,-52 192,-47C202,-42 212,-36 221,-31C230,-26 239,-19 250,-12C257,-7 264,-2 272,4C279,10 286,17 291,24C296,31 300,39 302,48C303,56 302,64 297,72z"
   horiz-adv-x="328.000"
   unicode="˙" />
</font>
<font
   vert-adv-y="1024"
   vert-origin-y="768"
   vert-origin-x="512"
   horiz-origin-y="0"
   horiz-origin-x="0"
   id="font126"
   horiz-adv-x="2048">
<!-- Monotype:Times New Roman Regular (Microsoft) -->
<font-face
   id="font-face66"
   underline-thickness="100.000000"
   underline-position="-223.000000"
   units-per-em="2048"
   font-family="'Times New Roman'">
<font-face-src><font-face-name
     name="Times New Roman" /></font-face-src></font-face>
<missing-glyph
   id="missing-glyph68"
   horiz-adv-x="0" />
<glyph
   id="glyph70"
   horiz-adv-x="512.000"
   unicode=" " />
<glyph
   id="glyph72"
   d="M636,-401L636,-438C535,-387 451,-328 384,-260C288,-163 214,-49 162,82C110,213 84,350 84,491C84,698 135,886 237,1057C339,1227 472,1349 636,1422L636,1380C554,1335 487,1273 434,1194C381,1115 342,1016 316,895C290,774 277,648 277,517C277,374 288,245 310,128C327,36 348,-38 373,-93C398,-149 431,-203 473,-254C514,-305 569,-354 636,-401z"
   horiz-adv-x="682.000"
   unicode="(" />
<glyph
   id="glyph74"
   d="M46,1380L46,1422C147,1372 232,1313 299,1245C394,1148 468,1034 520,903C572,772 598,635 598,493C598,286 547,98 446,-72C344,-243 211,-365 46,-438L46,-401C128,-355 196,-293 249,-214C302,-136 341,-36 367,85C392,206 405,332 405,463C405,605 394,735 372,852C355,944 335,1018 310,1073C285,1128 251,1182 210,1233C169,1284 114,1333 46,1380z"
   horiz-adv-x="682.000"
   unicode=")" />
<glyph
   id="glyph76"
   d="M83,535L600,535L600,384L83,384z"
   horiz-adv-x="682.000"
   unicode="-" />
<glyph
   id="glyph78"
   d="M240,1223L570,1384L603,1384L603,239C603,163 606,116 613,97C619,78 632,64 652,54C672,44 713,38 774,37L774,0L264,0L264,37C328,38 369,44 388,54C407,63 420,76 427,93C434,109 438,158 438,239L438,971C438,1070 435,1133 428,1161C423,1182 415,1198 403,1208C390,1218 375,1223 358,1223C333,1223 299,1213 255,1192z"
   horiz-adv-x="1024.000"
   unicode="1" />
<glyph
   id="glyph80"
   d="M104,1098C143,1189 192,1260 251,1310C310,1359 383,1384 471,1384C580,1384 663,1349 721,1278C765,1225 787,1169 787,1109C787,1010 725,908 601,803C684,770 747,724 790,663C833,602 854,531 854,449C854,332 817,230 742,144C645,32 504,-24 319,-24C228,-24 166,-13 133,10C100,33 83,57 83,83C83,102 91,119 107,134C122,149 141,156 163,156C180,156 197,153 214,148C225,145 251,133 291,112C331,91 359,78 374,74C399,67 425,63 453,63C521,63 580,89 631,142C681,195 706,257 706,329C706,382 694,433 671,483C654,520 635,549 614,568C585,595 546,619 496,641C446,662 395,673 343,673L311,673L311,703C364,710 417,729 470,760C523,791 561,829 585,873C609,917 621,965 621,1018C621,1087 600,1142 557,1185C514,1227 460,1248 396,1248C293,1248 206,1193 137,1082z"
   horiz-adv-x="1024.000"
   unicode="3" />
<glyph
   id="glyph82"
   d="M889,1356L811,1186L403,1186L314,1004C491,978 631,912 734,807C823,716 867,610 867,487C867,416 853,350 824,289C795,228 758,177 714,134C670,91 621,57 567,31C490,-6 412,-24 331,-24C250,-24 191,-10 154,18C117,45 98,76 98,109C98,128 106,144 121,159C136,173 156,180 179,180C196,180 212,177 225,172C238,167 260,153 291,131C341,96 392,79 443,79C521,79 590,109 649,168C708,227 737,298 737,383C737,465 711,542 658,613C605,684 533,738 440,777C367,807 268,824 143,829L403,1356z"
   horiz-adv-x="1024.000"
   unicode="5" />
<glyph
   id="glyph84"
   d="M108,-28L108,9C195,10 275,31 350,70C425,109 497,177 567,274C636,371 685,478 712,595C607,528 513,494 428,494C333,494 251,531 183,605C115,678 81,776 81,898C81,1017 115,1122 183,1215C265,1328 372,1384 504,1384C615,1384 711,1338 790,1246C887,1132 936,991 936,824C936,673 899,533 825,403C751,272 648,164 516,78C409,7 292,-28 165,-28M728,669C740,756 746,825 746,877C746,942 735,1012 713,1087C691,1162 660,1219 620,1259C579,1299 533,1319 482,1319C423,1319 371,1292 326,1239C281,1186 259,1106 259,1001C259,860 289,750 348,671C391,614 445,585 508,585C539,585 575,592 617,607C659,622 696,642 728,669z"
   horiz-adv-x="1024.000"
   unicode="9" />
<glyph
   id="glyph86"
   d="M1233,1387L1264,926L1233,926C1192,1064 1133,1163 1056,1224C979,1285 887,1315 780,1315C690,1315 609,1292 536,1247C463,1201 406,1128 365,1028C323,928 302,804 302,655C302,532 322,426 361,336C400,246 460,177 539,129C618,81 708,57 809,57C897,57 975,76 1042,114C1109,151 1183,226 1264,338L1295,318C1227,197 1148,109 1057,53C966,-3 859,-31 734,-31C509,-31 335,52 212,219C120,343 74,489 74,657C74,792 104,917 165,1030C226,1143 309,1231 416,1294C522,1356 638,1387 764,1387C862,1387 959,1363 1054,1315C1082,1300 1102,1293 1114,1293C1132,1293 1148,1299 1161,1312C1178,1330 1191,1355 1198,1387z"
   horiz-adv-x="1366.000"
   unicode="C" />
<glyph
   id="glyph88"
   d="M428,1282L428,746L726,746C803,746 855,758 881,781C916,812 935,866 939,943L976,943L976,471L939,471C930,537 920,579 911,598C899,621 879,640 852,653C825,666 783,673 726,673L428,673L428,226C428,166 431,130 436,117C441,104 451,93 464,86C477,78 503,74 540,74L770,74C847,74 902,79 937,90C972,101 1005,122 1037,153C1078,194 1121,257 1164,340L1204,340L1087,0L42,0L42,37L90,37C122,37 152,45 181,60C202,71 217,87 225,108C232,129 236,173 236,239L236,1120C236,1206 227,1259 210,1279C186,1306 146,1319 90,1319L42,1319L42,1356L1087,1356L1102,1059L1063,1059C1049,1130 1034,1179 1017,1206C1000,1233 974,1253 941,1267C914,1277 867,1282 800,1282z"
   horiz-adv-x="1251.000"
   unicode="E" />
<glyph
   id="glyph90"
   d="M838,0L314,1141L314,235C314,152 323,100 341,79C366,51 405,37 458,37L506,37L506,0L34,0L34,37L82,37C139,37 180,54 204,89C219,110 226,159 226,235L226,1121C226,1181 219,1224 206,1251C197,1270 180,1287 155,1300C130,1313 89,1319 34,1319L34,1356L418,1356L910,295L1394,1356L1778,1356L1778,1319L1731,1319C1673,1319 1632,1302 1608,1267C1593,1246 1586,1197 1586,1121L1586,235C1586,152 1595,100 1614,79C1639,51 1678,37 1731,37L1778,37L1778,0L1202,0L1202,37L1250,37C1308,37 1349,54 1372,89C1387,110 1394,159 1394,235L1394,1141L871,0z"
   horiz-adv-x="1821.000"
   unicode="M" />
<glyph
   id="glyph92"
   d="M939,1387L939,918L902,918C890,1008 869,1080 838,1133C807,1186 762,1229 705,1260C648,1291 588,1307 527,1307C458,1307 400,1286 355,1244C310,1201 287,1153 287,1099C287,1058 301,1020 330,986C371,936 470,869 625,786C752,718 838,666 885,630C931,593 967,550 992,501C1017,452 1029,400 1029,346C1029,243 989,155 910,81C830,6 727,-31 602,-31C563,-31 526,-28 491,-22C470,-19 428,-6 363,15C298,36 256,46 239,46C222,46 209,41 200,31C190,21 183,0 178,-31L141,-31L141,434L178,434C195,337 219,264 248,216C277,167 322,127 383,95C443,63 509,47 581,47C664,47 730,69 779,113C827,157 851,209 851,269C851,302 842,336 824,370C805,404 777,436 738,465C712,485 641,528 525,593C409,658 327,709 278,748C229,787 191,829 166,876C141,923 128,974 128,1030C128,1127 165,1211 240,1282C315,1352 410,1387 525,1387C597,1387 673,1369 754,1334C791,1317 818,1309 833,1309C850,1309 865,1314 876,1325C887,1335 895,1356 902,1387z"
   horiz-adv-x="1139.000"
   unicode="S" />
<glyph
   id="glyph94"
   d="M1185,1356L1200,1038L1162,1038C1155,1094 1145,1134 1132,1158C1111,1197 1084,1225 1050,1244C1015,1262 970,1271 914,1271L723,1271L723,235C723,152 732,100 750,79C775,51 814,37 867,37L914,37L914,0L339,0L339,37L387,37C444,37 485,54 509,89C524,110 531,159 531,235L531,1271L368,1271C305,1271 260,1266 233,1257C198,1244 169,1220 144,1184C119,1148 105,1099 100,1038L62,1038L78,1356z"
   horiz-adv-x="1251.000"
   unicode="T" />
<glyph
   id="glyph96"
   d="M583,132C489,59 430,17 406,6C370,-11 332,-19 291,-19C228,-19 176,3 135,46C94,89 73,146 73,217C73,262 83,300 103,333C130,378 178,421 246,461C313,501 426,550 583,607L583,643C583,734 569,797 540,831C511,865 468,882 413,882C371,882 338,871 313,848C288,825 275,799 275,770L277,712C277,681 269,658 254,641C238,624 217,616 192,616C167,616 147,625 132,642C116,659 108,683 108,713C108,770 137,823 196,871C255,919 337,943 443,943C524,943 591,929 643,902C682,881 711,849 730,805C742,776 748,718 748,629L748,318C748,231 750,177 753,158C756,138 762,125 770,118C777,111 786,108 796,108C807,108 816,110 824,115C838,124 865,148 905,188L905,132C830,32 759,-18 691,-18C658,-18 632,-7 613,16C594,39 584,77 583,132M583,197L583,546C482,506 417,478 388,461C335,432 298,401 275,369C252,337 241,302 241,264C241,216 255,176 284,145C313,113 346,97 383,97C434,97 500,130 583,197z"
   horiz-adv-x="909.000"
   unicode="a" />
<glyph
   id="glyph98"
   d="M842,348C817,227 769,135 697,70C625,5 545,-28 458,-28C354,-28 263,16 186,103C109,190 70,308 70,457C70,601 113,718 199,808C284,898 387,943 507,943C597,943 671,919 729,872C787,824 816,774 816,723C816,698 808,677 792,662C775,646 752,638 723,638C684,638 654,651 634,676C623,690 615,717 612,756C608,795 594,825 571,846C548,866 515,876 474,876C407,876 354,851 313,802C259,737 232,650 232,543C232,434 259,337 313,254C366,170 439,128 530,128C595,128 654,150 706,195C743,226 778,281 813,362z"
   horiz-adv-x="909.000"
   unicode="c" />
<glyph
   id="glyph100"
   d="M218,571C217,435 250,328 317,251C384,174 462,135 552,135C612,135 664,152 709,185C753,218 790,274 820,354L851,334C837,243 796,160 729,85C662,10 577,-28 476,-28C366,-28 272,15 194,101C115,186 76,301 76,446C76,603 116,725 197,813C277,900 378,944 499,944C602,944 686,910 752,843C818,775 851,684 851,571M218,629L642,629C639,688 632,729 621,753C604,790 580,820 547,841C514,862 479,873 443,873C388,873 338,852 295,809C251,766 225,706 218,629z"
   horiz-adv-x="909.000"
   unicode="e" />
<glyph
   id="glyph102"
   d="M422,844L422,242C422,157 431,103 450,80C475,51 508,36 549,36L632,36L632,0L85,0L85,36L126,36C153,36 177,43 199,56C221,69 236,87 245,110C253,133 257,177 257,242L257,844L79,844L79,916L257,916L257,976C257,1067 272,1145 301,1208C330,1271 375,1323 436,1362C496,1401 564,1420 639,1420C709,1420 773,1397 832,1352C871,1322 890,1288 890,1251C890,1231 881,1212 864,1195C847,1177 828,1168 808,1168C793,1168 777,1174 760,1185C743,1196 722,1219 697,1256C672,1292 650,1316 629,1329C608,1342 585,1348 560,1348C529,1348 503,1340 482,1324C461,1307 445,1282 436,1248C427,1213 422,1125 422,982L422,916L658,916L658,844z"
   horiz-adv-x="682.000"
   unicode="f" />
<glyph
   id="glyph104"
   d="M309,334C253,361 210,400 180,449C150,498 135,552 135,611C135,702 169,780 238,845C306,910 393,943 500,943C587,943 663,922 727,879L921,879C950,879 966,878 971,877C976,875 979,872 981,868C985,862 987,851 987,836C987,819 985,807 982,800C980,797 977,794 972,792C967,790 950,789 921,789L802,789C839,741 858,680 858,605C858,520 825,447 760,386C695,325 607,295 497,295C452,295 405,302 358,315C329,290 309,268 299,249C288,230 283,213 283,200C283,189 289,178 300,167C311,156 332,149 364,144C383,141 429,139 504,137C641,134 730,129 771,123C833,114 883,91 920,54C957,17 975,-29 975,-84C975,-159 940,-230 869,-296C765,-393 629,-442 462,-442C333,-442 225,-413 136,-355C86,-322 61,-287 61,-251C61,-235 65,-219 72,-203C83,-178 107,-144 142,-100C147,-94 181,-58 244,8C209,29 185,47 171,64C156,80 149,98 149,119C149,142 159,170 178,201C197,232 240,277 309,334M483,895C434,895 392,875 359,836C326,797 309,736 309,655C309,550 332,468 377,410C412,366 456,344 509,344C560,344 601,363 634,401C667,439 683,499 683,580C683,686 660,769 614,829C580,873 536,895 483,895M299,0C268,-34 244,-66 228,-95C212,-124 204,-151 204,-176C204,-208 223,-236 262,-260C329,-301 425,-322 551,-322C671,-322 760,-301 817,-258C874,-216 902,-171 902,-123C902,-88 885,-64 851,-49C816,-34 748,-26 645,-23C495,-19 380,-11 299,0z"
   horiz-adv-x="1024.000"
   unicode="g" />
<glyph
   id="glyph106"
   d="M333,1422L333,752C407,833 466,886 509,909C552,932 596,943 639,943C691,943 736,929 773,900C810,871 838,826 856,765C869,722 875,644 875,531L875,207C875,149 880,109 889,88C896,72 907,59 923,50C939,41 968,36 1011,36L1011,0L561,0L561,36L582,36C625,36 654,43 671,56C688,69 699,88 706,113C708,124 709,155 709,207L709,531C709,631 704,697 694,728C683,759 667,783 644,799C621,814 594,822 562,822C529,822 495,813 460,796C425,779 382,744 333,691L333,207C333,144 337,105 344,90C351,75 364,62 383,52C402,41 434,36 481,36L481,0L27,0L27,36C68,36 100,42 123,55C136,62 147,74 155,93C163,112 167,150 167,207L167,1036C167,1141 165,1205 160,1229C155,1253 147,1269 137,1278C126,1287 112,1291 95,1291C81,1291 58,1286 27,1275L13,1310L287,1422z"
   horiz-adv-x="1024.000"
   unicode="h" />
<glyph
   id="glyph108"
   d="M297,1422C325,1422 349,1412 369,1393C388,1373 398,1349 398,1321C398,1293 388,1269 369,1249C349,1229 325,1219 297,1219C269,1219 245,1229 225,1249C205,1269 195,1293 195,1321C195,1349 205,1373 225,1393C244,1412 268,1422 297,1422M380,943L380,207C380,150 384,112 393,93C401,74 413,59 430,50C446,41 476,36 519,36L519,0L74,0L74,36C119,36 149,40 164,49C179,58 192,72 201,92C210,112 214,150 214,207L214,560C214,659 211,724 205,753C200,774 193,789 183,798C173,806 159,810 142,810C123,810 101,805 74,795L60,831L336,943z"
   horiz-adv-x="569.000"
   unicode="i" />
<glyph
   id="glyph110"
   d="M379,1422L379,207C379,150 383,112 392,93C400,74 413,60 430,51C447,41 480,36 527,36L527,0L78,0L78,36C120,36 149,40 164,49C179,58 191,72 200,92C209,112 213,150 213,207L213,1039C213,1142 211,1206 206,1230C201,1253 194,1269 184,1278C173,1287 160,1291 144,1291C127,1291 105,1286 78,1275L61,1310L334,1422z"
   horiz-adv-x="569.000"
   unicode="l" />
<glyph
   id="glyph112"
   d="M336,748C403,815 442,853 454,863C484,888 516,908 551,922C586,936 620,943 654,943C711,943 761,926 802,893C843,860 871,811 885,748C954,828 1012,881 1059,906C1106,931 1155,943 1205,943C1254,943 1297,931 1335,906C1372,881 1402,840 1424,783C1439,744 1446,684 1446,601L1446,207C1446,150 1450,110 1459,89C1466,74 1478,62 1496,52C1514,41 1543,36 1584,36L1584,0L1132,0L1132,36L1151,36C1190,36 1221,44 1243,59C1258,70 1269,87 1276,110C1279,121 1280,154 1280,207L1280,601C1280,676 1271,728 1253,759C1227,802 1185,823 1128,823C1093,823 1057,814 1022,797C986,779 943,746 892,698L890,687L892,644L892,207C892,144 896,105 903,90C910,75 923,62 942,52C961,41 994,36 1041,36L1041,0L578,0L578,36C629,36 664,42 683,54C702,66 715,84 722,108C725,119 727,152 727,207L727,601C727,676 716,729 694,762C665,805 624,826 571,826C535,826 499,816 464,797C409,768 366,735 336,698L336,207C336,147 340,108 349,90C357,72 369,59 386,50C402,41 435,36 485,36L485,0L32,0L32,36C74,36 103,41 120,50C137,59 149,73 158,93C167,112 171,150 171,207L171,557C171,658 168,723 162,752C157,774 150,789 140,798C130,806 116,810 99,810C80,810 58,805 32,795L17,831L293,943L336,943z"
   horiz-adv-x="1593.000"
   unicode="m" />
<glyph
   id="glyph114"
   d="M331,749C438,878 541,943 638,943C688,943 731,931 767,906C803,881 832,839 853,782C868,742 875,681 875,598L875,207C875,149 880,110 889,89C896,72 908,59 925,50C941,41 971,36 1015,36L1015,0L562,0L562,36L581,36C624,36 654,43 671,56C688,69 699,88 706,113C709,123 710,154 710,207L710,582C710,665 699,726 678,764C656,801 619,820 568,820C489,820 410,777 331,690L331,207C331,145 335,107 342,92C351,73 364,59 381,50C397,41 430,36 480,36L480,0L27,0L27,36L47,36C94,36 125,48 142,72C158,95 166,140 166,207L166,547C166,657 164,724 159,748C154,772 146,788 136,797C125,806 111,810 94,810C75,810 53,805 27,795L12,831L288,943L331,943z"
   horiz-adv-x="1024.000"
   unicode="n" />
<glyph
   id="glyph116"
   d="M512,943C651,943 762,890 846,785C917,695 953,592 953,475C953,393 933,310 894,226C855,142 801,79 732,36C663,-7 586,-28 501,-28C363,-28 253,27 172,137C103,230 69,334 69,449C69,533 90,617 132,700C173,783 228,844 296,884C364,923 436,943 512,943M481,878C446,878 410,868 375,847C339,826 310,789 288,736C266,683 255,616 255,533C255,400 282,285 335,188C388,91 457,43 544,43C609,43 662,70 704,123C746,176 767,268 767,398C767,561 732,689 662,782C615,846 554,878 481,878z"
   horiz-adv-x="1024.000"
   unicode="o" />
<glyph
   id="glyph118"
   d="M332,943L332,737C409,874 487,943 568,943C605,943 635,932 659,910C683,887 695,861 695,832C695,806 686,784 669,766C652,748 631,739 607,739C584,739 558,751 529,774C500,797 478,808 464,808C452,808 439,801 425,788C395,761 364,716 332,653L332,214C332,163 338,125 351,99C360,81 375,66 397,54C419,42 451,36 492,36L492,0L23,0L23,36C70,36 104,43 127,58C144,69 155,86 162,109C165,120 167,153 167,206L167,561C167,668 165,731 161,752C156,772 148,787 137,796C125,805 110,810 93,810C72,810 49,805 23,795L13,831L290,943z"
   horiz-adv-x="682.000"
   unicode="r" />
<glyph
   id="glyph120"
   d="M330,1217L330,916L544,916L544,846L330,846L330,252C330,193 339,153 356,132C373,111 394,101 421,101C443,101 464,108 485,122C506,135 522,155 533,182L572,182C549,117 516,68 473,35C430,2 386,-15 341,-15C310,-15 280,-6 251,11C222,28 200,52 186,84C172,115 165,164 165,230L165,846L20,846L20,879C57,894 94,919 133,954C171,989 205,1030 235,1078C250,1103 272,1150 299,1217z"
   horiz-adv-x="569.000"
   unicode="t" />
<glyph
   id="glyph122"
   d="M27,916L458,916L458,879C431,879 412,874 401,865C390,856 384,843 384,828C384,812 396,787 419,754C426,743 437,727 452,704L517,600L592,704C640,770 664,812 664,829C664,843 658,855 647,865C636,874 617,879 592,879L592,916L902,916L902,879C869,877 841,868 817,852C784,829 740,780 683,704L558,537L786,209C842,128 882,80 906,64C930,47 961,38 999,36L999,0L567,0L567,36C597,36 620,43 637,56C650,65 656,78 656,93C656,108 635,147 592,209L458,405L311,209C266,148 243,112 243,101C243,85 251,71 266,58C281,45 303,37 333,36L333,0L34,0L34,36C58,39 79,48 97,61C122,80 165,130 225,209L417,464L243,716C194,788 156,833 129,852C102,870 68,879 27,879z"
   horiz-adv-x="1024.000"
   unicode="x" />
<glyph
   id="glyph124"
   d="M12,916L439,916L439,879L418,879C388,879 366,873 351,860C336,847 328,830 328,811C328,785 339,749 361,703L584,241L789,747C800,774 806,801 806,828C806,840 804,849 799,855C794,862 785,868 774,873C763,877 743,879 714,879L714,916L1012,916L1012,879C987,876 968,871 955,863C942,855 927,840 911,818C905,809 894,783 877,741L504,-173C468,-262 421,-329 363,-374C304,-419 248,-442 194,-442C155,-442 122,-431 97,-408C72,-385 59,-359 59,-330C59,-302 68,-279 87,-262C105,-245 130,-237 162,-237C184,-237 214,-244 252,-259C279,-269 295,-274 302,-274C322,-274 344,-264 368,-243C391,-222 415,-182 439,-123L504,36L175,727C165,748 149,773 127,804C110,827 97,843 86,851C71,862 46,871 12,879z"
   horiz-adv-x="1024.000"
   unicode="y" />
</font>
<font
   vert-adv-y="1024"
   vert-origin-y="768"
   vert-origin-x="512"
   horiz-origin-y="0"
   horiz-origin-x="0"
   id="font154"
   horiz-adv-x="2048">
<!-- Monotype:Times New Roman Bold (Microsoft) -->
<font-face
   id="font-face128"
   underline-thickness="195.000000"
   underline-position="-223.000000"
   units-per-em="2048"
   font-weight="bold"
   font-family="'Times New Roman'">
<font-face-src><font-face-name
     name="Times New Roman Bold" /></font-face-src></font-face>
<missing-glyph
   id="missing-glyph130"
   horiz-adv-x="0" />
<glyph
   id="glyph132"
   horiz-adv-x="512.000"
   unicode=" " />
<glyph
   id="glyph134"
   d="M852,386L373,386L316,254C297,210 288,174 288,145C288,107 303,79 334,61C352,50 396,42 467,37L467,0L16,0L16,37C65,44 105,65 136,98C167,131 206,199 252,302L737,1384L756,1384L1245,272C1292,167 1330,100 1360,73C1383,52 1415,40 1456,37L1456,0L800,0L800,37L827,37C880,37 917,44 938,59C953,70 960,85 960,105C960,117 958,129 954,142C953,148 943,173 924,217M818,460L616,927L408,460z"
   horiz-adv-x="1479.000"
   unicode="A" />
<glyph
   id="glyph136"
   d="M563,1278L563,721L602,721C662,721 711,730 749,748C787,766 819,796 846,839C872,882 889,939 897,1012L932,1012L932,331L897,331C884,460 850,545 794,586C737,627 673,647 602,647L563,647L563,232C563,163 567,119 575,102C582,85 597,70 620,57C642,44 672,37 710,37L755,37L755,0L46,0L46,37L91,37C130,37 162,44 186,58C203,67 217,83 226,106C233,122 237,164 237,232L237,1124C237,1193 233,1237 226,1254C219,1271 204,1287 182,1300C159,1313 129,1319 91,1319L46,1319L46,1356L1190,1356L1190,967L1149,967C1140,1058 1116,1126 1078,1170C1039,1214 984,1245 911,1263C871,1273 797,1278 689,1278z"
   horiz-adv-x="1251.000"
   unicode="F" />
<glyph
   id="glyph138"
   d="M861,501L348,501C354,377 387,279 447,207C493,152 548,124 613,124C653,124 689,135 722,158C755,180 790,220 827,278L861,256C810,153 754,80 693,37C632,-6 561,-28 480,-28C341,-28 236,25 165,132C108,218 79,325 79,452C79,608 121,732 206,825C290,917 389,963 502,963C597,963 679,924 749,847C818,769 856,654 861,501M615,568C615,675 609,749 598,789C586,829 568,859 543,880C529,892 510,898 487,898C452,898 424,881 402,847C363,788 343,706 343,603L343,568z"
   horiz-adv-x="909.000"
   unicode="e" />
<glyph
   id="glyph140"
   d="M669,924L984,924L984,814L805,814C838,781 860,752 873,725C889,689 897,651 897,612C897,545 879,488 842,439C805,390 754,351 691,324C627,296 570,282 521,282C517,282 477,284 401,287C371,287 346,277 326,258C305,238 295,214 295,187C295,163 304,143 323,128C341,113 371,105 412,105L585,107C725,107 821,92 874,61C949,18 987,-47 987,-136C987,-193 970,-244 935,-290C900,-337 855,-371 798,-393C712,-426 613,-442 501,-442C417,-442 340,-434 271,-417C202,-401 152,-378 122,-349C92,-320 77,-290 77,-258C77,-227 89,-200 112,-175C135,-151 177,-131 240,-114C153,-71 110,-12 110,64C110,110 128,155 163,198C198,241 254,279 331,311C242,344 177,387 137,440C97,493 77,555 77,625C77,716 114,796 189,863C264,930 360,963 477,963C539,963 603,950 669,924M496,901C457,901 425,882 398,843C371,804 358,723 358,600C358,501 371,433 398,396C424,359 455,340 491,340C531,340 564,358 591,395C618,432 631,503 631,609C631,728 616,810 586,853C565,885 535,901 496,901M437,-138C369,-138 324,-144 302,-155C264,-176 245,-204 245,-239C245,-273 265,-304 304,-331C343,-359 417,-373 526,-373C619,-373 692,-361 745,-336C798,-311 824,-277 824,-232C824,-215 819,-201 809,-190C791,-170 764,-156 728,-149C691,-142 594,-138 437,-138z"
   horiz-adv-x="1024.000"
   unicode="g" />
<glyph
   id="glyph142"
   d="M294,1388C337,1388 374,1373 404,1343C434,1312 449,1276 449,1233C449,1190 434,1154 404,1124C373,1094 337,1079 294,1079C251,1079 215,1094 185,1124C155,1154 140,1190 140,1233C140,1276 155,1312 185,1343C215,1373 251,1388 294,1388M434,935L434,194C434,128 442,86 457,68C472,49 502,39 547,36L547,0L42,0L42,36C83,37 114,49 134,72C147,87 154,128 154,194L154,740C154,806 146,848 131,867C116,885 86,895 42,898L42,935z"
   horiz-adv-x="569.000"
   unicode="i" />
<glyph
   id="glyph144"
   d="M435,1356L435,194C435,128 443,86 458,68C473,49 503,39 548,36L548,0L43,0L43,36C84,37 115,49 135,72C148,87 155,128 155,194L155,1162C155,1227 147,1269 132,1288C117,1306 87,1316 43,1319L43,1356z"
   horiz-adv-x="569.000"
   unicode="l" />
<glyph
   id="glyph146"
   d="M510,963C591,963 667,942 737,900C807,858 860,798 897,721C933,644 951,559 951,467C951,334 917,223 850,134C769,26 656,-28 513,-28C372,-28 264,21 188,120C112,219 74,333 74,463C74,597 113,714 191,814C268,913 375,963 510,963M514,892C480,892 451,879 427,854C402,828 386,777 379,702C371,626 367,521 367,386C367,315 372,248 381,186C388,139 404,103 428,78C452,53 479,41 510,41C540,41 565,49 585,66C611,89 628,120 637,161C650,224 657,352 657,545C657,658 651,736 638,779C625,821 607,852 582,871C565,885 542,892 514,892z"
   horiz-adv-x="1024.000"
   unicode="o" />
<glyph
   id="glyph148"
   d="M457,935L457,723C519,820 573,884 620,916C667,947 712,963 755,963C792,963 822,952 845,929C867,906 878,873 878,831C878,786 867,752 846,727C824,702 798,690 767,690C732,690 701,701 675,724C649,747 634,759 629,762C622,766 615,768 606,768C587,768 568,761 551,746C524,723 503,691 489,649C468,584 457,513 457,435L457,220L458,164C458,126 460,102 465,91C473,73 485,60 501,52C516,43 543,38 580,36L580,0L75,0L75,36C116,39 143,51 158,70C172,89 179,139 179,220L179,737C179,790 176,824 171,839C164,858 155,871 142,880C129,889 107,895 75,898L75,935z"
   horiz-adv-x="909.000"
   unicode="r" />
<glyph
   id="glyph150"
   d="M660,961L675,642L641,642C600,737 558,801 515,836C471,871 427,888 384,888C357,888 333,879 314,861C295,842 285,821 285,797C285,779 292,762 305,745C326,718 386,671 484,605C582,538 647,482 678,436C709,389 724,337 724,280C724,228 711,177 685,127C659,77 622,39 575,12C528,-15 475,-28 418,-28C373,-28 314,-14 239,14C219,21 205,25 198,25C176,25 158,8 143,-25L110,-25L94,311L128,311C158,223 199,157 252,113C304,69 353,47 400,47C432,47 458,57 479,77C499,96 509,120 509,148C509,180 499,208 479,231C459,254 414,290 345,337C243,408 177,462 147,499C103,554 81,614 81,680C81,752 106,817 156,876C205,934 277,963 371,963C422,963 471,951 518,926C536,916 551,911 562,911C574,911 584,914 591,919C598,924 610,938 626,961z"
   horiz-adv-x="797.000"
   unicode="s" />
<glyph
   id="glyph152"
   d="M972,935L972,203C972,132 979,87 992,70C1005,52 1032,41 1073,36L1073,0L692,0L692,125C647,72 603,33 558,9C513,-16 463,-28 408,-28C355,-28 309,-12 268,21C227,53 199,91 185,134C171,177 164,253 164,361L164,732C164,803 158,847 145,864C132,881 104,893 63,898L63,935L444,935L444,296C444,229 447,186 454,167C460,148 470,133 484,123C497,113 513,108 531,108C555,108 577,114 596,127C623,144 655,179 692,232L692,732C692,803 686,847 673,864C660,881 632,893 591,898L591,935z"
   horiz-adv-x="1139.000"
   unicode="u" />
</font>
<font
   vert-adv-y="1024"
   vert-origin-y="768"
   vert-origin-x="512"
   horiz-origin-y="0"
   horiz-origin-x="0"
   id="font162"
   horiz-adv-x="2048">
<!-- Monotype:Times New Roman Bold Italic (Microsoft) -->
<font-face
   id="font-face156"
   underline-thickness="195.000000"
   underline-position="-223.000000"
   units-per-em="2048"
   font-style="italic"
   font-weight="bold"
   font-family="'Times New Roman'">
<font-face-src><font-face-name
     name="Times New Roman Bold Italic" /></font-face-src></font-face>
<missing-glyph
   id="missing-glyph158"
   horiz-adv-x="0" />
<glyph
   id="glyph160"
   d="M261,737L274,780C367,793 441,813 498,839C574,872 629,911 664,956C699,1001 716,1049 716,1100C716,1144 700,1182 669,1213C638,1244 599,1260 552,1260C515,1260 481,1250 450,1231C419,1212 385,1178 348,1130L308,1150C364,1234 420,1294 477,1330C533,1366 596,1384 666,1384C754,1384 825,1359 880,1310C935,1260 962,1200 962,1131C962,1076 949,1029 922,988C895,947 856,912 804,882C766,860 706,838 625,815C699,783 751,747 781,707C826,648 848,576 848,492C848,335 780,205 644,102C530,15 398,-28 248,-28C168,-28 108,-13 67,17C39,38 25,65 25,99C25,130 36,155 57,175C78,195 105,205 136,205C152,205 167,202 182,195C207,184 245,162 296,128C347,93 389,76 422,76C463,76 500,97 531,139C577,201 600,279 600,372C600,445 585,508 556,563C527,618 489,658 443,685C397,711 336,728 261,737z"
   horiz-adv-x="1024.000"
   unicode="3" />
</font>
</defs>
</svg>
